redfm935
» » Cone - Ataque Ochentoso Vol 1

Cone - Ataque Ochentoso Vol 1 album mp3

Cone - Ataque Ochentoso Vol 1 album mp3

Performer: Cone
Title: Ataque Ochentoso Vol 1
Released: 2003
Style: House, Deep House, New Beat
Category: Electronic
Album rating: 4.5
Votes: 851
Size MP3: 1135 mb
Size FLAC: 1115 mb
Size WMA: 1727 mb
Other formats: VQF DTS DMF RA MIDI AHX MP3

Tracklist

1 Atahualpa Ultimo Imperio (Intro) 0:37
2 FPI Project Rich In Paradise (Vocal Remix) 5:31
3 Jinny Keep Warm (Extended Mix) 3:36
4 Kraze The Party (Club Mix) 3:04
5 ICE MC Cinema (The Oscar Mix) 4:01
6 MC Miker G Show'm Bass (Single Version) 3:22
7 Cappella Get Out Of My Case (Original Mix) 5:33
8 Inner City Big Fun (Magic Juan's Mix) 3:38
9 101 Just As Long As I Got You (Ro Maron Mix) 3:19
10 Mr Lee* Get Busy (Club Mix) 3:54
11 49ers Touch Me (Sexual Version) 4:18
12 Isidro Alfaro Gutierrez Niña De Pelo Negro (Extended Version) 5:35
13 Bravo and DJs* Difacil Rap (Remix) 2:42
14 Don Pablo's Animals Venus (The Piano Mix) 2:53
15 MC Sar & The Real McCoy* It's On You (Extended Mix) 3:07
16 Cappella House Energy Revenge (12" Remix) 2:44
17 Technotronic Megamix (Club Version) 5:42
18 Double Dee Found Love (International Mix) 2:28
19 Bizz Nizz Get Into Trance (Euro 7") 3:00
20 Plaza O-Oh (Dance Version) 3:56
21 Dead Or Alive You Spin Me Round (Murder Mix) 6:49

Credits

  • DJ Mix – Cone*

Notes

Track 20 name spells incorrectly

Barcode and Other Identifiers

  • Barcode: 7797483000001


On this page you can not listen to mp3 music free or download album or mp3 track to your PC, phone or tablet. All materials are provided for educational purposes. Released at: This album was released on the label Kabra Records (catalog number ATOC01). This album was released in 2003 year. Format of the release is.

Ataque Ochentoso - Vol. 1 - 80's Attack (88, 91). 5 years ago 5 years ago. House. Mixed by Dj Cone : ww. oneman. Garage Euro Italodance Techno Hip-House Eurodance New Beat Acid House Mixtape.

PERFORMER DJ CoNE TITLE Ataque Ochentoso Vol 1. TRACK 01 AUDIO TITLE Atahualpa - Ultimo imperio (Intro) INDEX 01 00:00:00 TRACK 02 AUDIO TITLE FPI Project - Rich in paradise (Vocal remix) INDEX 01 00:36:74 TRACK 03 AUDIO TITLE Jinny - Keep warm (Extended mix) INDEX 01 06:08:04 TRACK 04 AUDIO TITLE Kraze - The party (Club mix) INDEX 01 09:44:18 TRACK 05 AUDIO TITLE ICE MC -. Cinema (The Oscar mix) INDEX 01 12:48:01 TRACK 06 AUDIO TITLE MC Miker G - Show'm bass (Single version) INDEX 01 16:48:64 TRACK 07 AUDIO TITLE Cappella - Get out of my case (Original mix) INDEX 01 20:10:53 TRACK 08 AU. .

ataque ochentoso", Canals. Los ´80 están de moda. Local Business in Canals, Cordoba, Argentina.

org DJ CoNE - Ataque Ochentoso Vol 1 Audio Music. org DJ CoNE - Ataque Ochentoso Vol 1 Music. me Dj Cone Ataque Ochentoso Vol 1 Music. me DJ CoNE - Ataque Ochentoso Vol 1 Audio - Music. eu DJ CoNE - Ataque Ochentoso Vol 1 audio. Could not find any peer statistics from any torrent tracker. This does not mean the torrent is dead.

Related to Cone - Ataque Ochentoso Vol 1

Various - Blanco Y Negro DJ Series 2013 Vol.05 album mp3

Various - Blanco Y Negro DJ Series 2013 Vol.05 download mp3

Released: 2013
Style: Eurodance, Electro House, Euro House
Isidro Alfaro Gutierrez - Niña De Pelo Negro (Remix) album mp3

Isidro Alfaro Gutierrez - Niña De Pelo Negro (Remix) download mp3

Released: 1989
Country: Spain
Style: Italo House
Various - Channel 2 - DMC Germany Pres. 20 Of The Hottest Dance Tracks album mp3

Various - Channel 2 - DMC Germany Pres. 20 Of The Hottest Dance Tracks download mp3

Released: 1990
Country: Germany
Style: House, Euro House, Italo-Disco
Various - Dance November 06 album mp3

Various - Dance November 06 download mp3

Released: 2006
Style: Euro House
Various - Blanco Y Negro DJ Series Q3/2012 album mp3

Various - Blanco Y Negro DJ Series Q3/2012 download mp3

Released: 2012
Style: Euro House, House, Electro
Various - Atomic Dance - Vol. 2 album mp3

Various - Atomic Dance - Vol. 2 download mp3

Released: 1994
Style: Eurodance
Various - Exit Trance #02 album mp3

Various - Exit Trance #02 download mp3

Released: 2006
Style: Trance, Hard Trance, Progressive Trance, Hands Up